osu file format v14

[General]
AudioFilename: 23. LOVE B.B.B.mp3
AudioLeadIn: 1500
PreviewTime: 45128
Countdown: 0
SampleSet: Soft
StackLeniency: 0.7
Mode: 0
LetterboxInBreaks: 1
WidescreenStoryboard: 1

[Editor]
Bookmarks: 67324
DistanceSpacing: 1.1
BeatDivisor: 4
GridSize: 16
TimelineZoom: 1.940002

[Metadata]
Title:LOVE B.B.B
TitleUnicode:LOVE B.B.B
Artist:SWAN K feat. Asuka M
ArtistUnicode:SWAN K feat. Asuka M
Creator:rs_fadeaway
Version:ZZHBOY's Hyper
Source:beatmania IIDX 19 Lincle
Tags:DRUM'N'BASS dnb AgeSheRi ZZHBOY NextNaix
BeatmapID:985471
BeatmapSetID:143457

[Difficulty]
HPDrainRate:4
CircleSize:4
OverallDifficulty:6
ApproachRate:8
SliderMultiplier:1.4
SliderTickRate:1

[Events]
//Background and Video events
0,0,"BG.jpg",0,0
//Break Periods
2,78622,85996
//Storyboard Layer 0 (Background)
//Storyboard Layer 1 (Fail)
//Storyboard Layer 2 (Pass)
//Storyboard Layer 3 (Foreground)
//Storyboard Sound Samples

[TimingPoints]
735,346.820809248555,4,2,1,55,1,0
735,-100,4,2,1,55,0,0
11486,-100,4,2,1,75,0,0
20156,-100,4,2,1,50,0,0
21544,-100,4,2,1,75,0,0
22584,-100,4,2,1,45,0,0
22931,-100,4,2,1,80,0,0
34029,-100,4,2,1,90,0,0
42353,-100,4,2,1,80,0,0
43047,-100,4,2,1,40,0,0
43740,-100,4,3,1,70,0,0
44087,-100,4,3,1,80,0,0
44434,-100,4,3,1,90,0,0
44781,-100,4,2,1,85,0,0
45128,-100,4,2,1,70,0,1
45821,-100,4,2,1,75,0,1
46515,-100,4,2,1,85,0,1
47035,-100,4,2,1,90,0,1
47382,-100,4,2,1,95,0,1
47902,-100,4,2,1,90,0,1
48422,-100,4,2,1,80,0,1
49463,-100,4,2,1,70,0,1
49723,-100,4,2,1,75,0,1
49983,-100,4,2,1,80,0,1
50243,-100,4,2,1,85,0,1
50503,-100,4,2,1,75,0,1
61775,-100,4,2,1,55,0,1
62122,-100,4,2,1,65,0,1
63162,-100,4,2,1,75,0,1
64723,-100,4,2,1,85,0,1
65763,-100,4,2,1,80,0,1
65937,-100,4,2,1,75,0,1
67151,-100,4,2,1,70,0,1
67324,-100,4,2,1,75,0,0
78769,-100,4,2,1,55,0,0
79116,-100,4,3,1,55,0,0
82498,-100,4,3,1,60,0,0
82584,-100,4,3,1,60,0,0
83278,-100,4,3,1,50,0,0
83885,-100,4,3,1,55,0,0
83971,-100,4,3,1,55,0,0
86746,-100,4,2,1,80,0,0
89174,-100,4,2,1,5,0,0
89521,-100,4,2,1,80,0,0
97844,-100,4,3,1,85,0,0
98538,-100,4,3,1,75,0,0
99232,-100,4,3,1,85,0,0
99925,-100,4,3,1,75,0,0
100619,-100,4,2,1,80,0,0
108943,-100,4,2,1,70,0,0
111717,-100,4,2,1,60,0,0
113971,-100,4,2,1,5,0,0

[Colours]
Combo1 : 255,128,128
Combo2 : 50,192,192
Combo3 : 211,88,208
Combo4 : 135,128,225

[HitObjects]
96,139,388,6,0,L|44:139,4,35,,,0:0:0:0:
217,78,2815,1,2,0:0:0:0:
207,212,3509,1,0,0:0:0:0:
256,322,4896,1,0,0:0:0:0:
416,139,5937,6,0,L|468:139,4,35,2|0|0|0|0,0:0|0:0|0:0|0:0|0:0,0:0:0:0:
295,78,8364,1,2,0:0:0:0:
305,212,9058,1,0,0:0:0:0:
256,322,10445,1,2,0:0:0:0:
96,139,11486,6,0,L|44:139,3,35,,,0:0:0:0:
25,154,11833,6,0,B|13:188|20:223|40:249,1,70,8|2,0:0|0:0,0:0:0:0:
75,280,12180,2,0,B|118:244|178:245|219:276,1,140,,,0:0:0:0:
215,286,12613,1,0,0:0:0:0:
224,304,12700,1,2,0:0:0:0:
301,317,12873,2,0,L|392:308,1,70,0|2,0:0|0:0,0:0:0:0:
443,336,13220,5,0,0:0:0:0:
490,272,13393,1,2,0:0:0:0:
425,229,13567,2,0,L|423:151,1,70,0|2,0:0|0:0,0:0:0:0:
418,138,13827,1,0,0:0:0:0:
412,121,13914,1,0,0:0:0:0:
336,136,14087,1,2,0:0:0:0:
271,93,14261,1,0,0:0:0:0:
250,98,14347,1,0,0:0:0:0:
229,103,14434,1,2,0:0:0:0:
156,77,14607,6,0,B|144:111|157:148|185:167,1,70,0|2,0:0|0:0,0:0:0:0:
212,203,14954,1,0,0:0:0:0:
173,270,15128,1,2,0:0:0:0:
178,290,15214,1,0,0:0:0:0:
184,310,15301,2,0,B|160:332|125:331|101:311,1,70,0|2,0:0|0:0,0:0:0:0:
51,285,15648,1,0,0:0:0:0:
89,218,15821,1,2,0:0:0:0:
22,178,15995,6,0,B|-1:126|24:66|74:44,1,140,0|0,0:0|0:0,0:0:0:0:
133,37,16515,1,2,0:0:0:0:
152,44,16602,1,0,0:0:0:0:
172,49,16688,2,0,L|249:48,1,70,0|2,0:0|0:0,0:0:0:0:
296,102,17035,2,0,L|295:157,3,35,0|0|0|0,0:0|0:0|0:0|0:0,0:0:0:0:
295,176,17382,6,0,B|261:166|226:169|196:180,1,70,8|2,0:0|0:0,0:0:0:0:
164,219,17729,2,0,B|149:274|180:328|231:346,1,140,0|0,0:0|0:0,0:0:0:0:
235,335,18162,1,0,0:0:0:0:
255,331,18249,1,2,0:0:0:0:
328,309,18422,1,0,0:0:0:0:
394,349,18596,1,2,0:0:0:0:
463,316,18769,6,0,B|479:293|481:265|470:241,1,70,0|2,0:0|0:0,0:0:0:0:
404,214,19116,2,0,B|388:191|386:163|397:139,1,70,0|2,0:0|0:0,0:0:0:0:
405,129,19376,1,0,0:0:0:0:
417,112,19463,1,0,0:0:0:0:
373,48,19636,1,2,0:0:0:0:
296,54,19810,1,0,0:0:0:0:
275,60,19896,1,0,0:0:0:0:
254,66,19983,1,2,0:0:0:0:
203,124,20156,6,0,L|206:186,11,46.6666666666667,0|2|2|0|2|2|0|2|2|0|2|2,0:0|0:0|0:0|0:0|0:0|0:0|0:0|0:0|0:0|0:0|0:0|0:0,0:0:0:0:
256,192,21544,12,8,22584,0:0:0:0:
101,147,22931,6,0,B|122:100|177:80|222:101,1,140,4|0,0:0|0:0,0:0:0:0:
259,164,23451,1,8,0:0:0:0:
185,185,23625,2,0,L|177:255,1,70,0|0,0:0|0:0,0:0:0:0:
172,331,23971,1,8,0:0:0:0:
321,294,24318,6,0,L|404:305,1,70,0|8,0:0|0:0,0:0:0:0:
463,279,24665,2,0,B|509:250|520:187|486:145,1,140,0|8,0:0|0:0,0:0:0:0:
444,96,25185,1,0,0:0:0:0:
373,127,25359,1,8,0:0:0:0:
240,206,25706,6,0,B|203:171|195:118|215:76,1,140,8|0,0:0|0:0,0:0:0:0:
155,26,26226,1,8,0:0:0:0:
80,44,26399,2,0,B|71:73|73:102|83:127,1,70,0|0,0:0|0:0,0:0:0:0:
133,167,26746,1,8,0:0:0:0:
17,268,27093,6,0,B|22:301|43:327|71:339,1,70,0|8,0:0|0:0,0:0:0:0:
128,334,27440,1,0,0:0:0:0:
187,285,27613,1,0,0:0:0:0:
206,292,27699,1,0,0:0:0:0:
228,301,27787,2,0,L|302:293,1,70,8|0,0:0|0:0,0:0:0:0:
369,319,28133,1,8,0:0:0:0:
494,229,28480,6,0,B|515:177|487:120|436:102,1,140,8|0,0:0|0:0,0:0:0:0:
380,141,29000,1,8,0:0:0:0:
329,199,29174,2,0,B|295:211|260:195|244:166,1,70,0|0,0:0|0:0,0:0:0:0:
200,141,29521,1,8,0:0:0:0:
105,20,29867,6,0,L|111:116,1,70,0|8,0:0|0:0,0:0:0:0:
120,166,30214,2,0,B|84:209|86:268|117:309,1,140,0|8,0:0|0:0,0:0:0:0:
180,328,30735,1,0,0:0:0:0:
242,282,30908,2,0,L|326:286,1,70,8|0,0:0|0:0,0:0:0:0:
367,339,31255,6,0,B|422:320|450:262|435:209,1,140,8|0,0:0|0:0,0:0:0:0:
386,173,31775,2,0,L|392:96,1,70,8|0,0:0|0:0,0:0:0:0:
460,69,32122,1,0,0:0:0:0:
392,32,32295,2,0,B|363:31|338:48|327:72,1,70,8|0,0:0|0:0,0:0:0:0:
322,139,32642,5,0,0:0:0:0:
291,209,32815,2,0,B|262:210|237:193|226:169,1,70,8|0,0:0|0:0,0:0:0:0:
203,106,33162,1,0,0:0:0:0:
197,85,33249,1,0,0:0:0:0:
191,64,33336,2,0,B|162:63|137:80|126:104,1,70,8|8,0:0|0:0,0:0:0:0:
106,167,33682,1,8,0:0:0:0:
124,320,34029,6,0,B|165:349|217:346|255:321,1,140,8|4,0:0|0:0,0:0:0:0:
279,246,34550,1,0,0:0:0:0:
351,272,34723,1,2,1:0:0:0:
371,276,34810,1,0,1:0:0:0:
391,281,34896,1,0,1:0:0:0:
435,218,35070,1,8,0:0:0:0:
372,173,35243,1,6,0:1:0:0:
366,152,35330,1,0,0:0:0:0:
361,131,35417,6,0,B|357:102|367:76|386:57,1,70,0|2,0:0|1:0,0:0:0:0:
323,12,35763,1,0,0:0:0:0:
253,46,35937,1,0,1:0:0:0:
259,66,36024,1,0,1:0:0:0:
265,85,36110,1,0,1:0:0:0:
214,143,36284,1,8,0:0:0:0:
245,212,36457,1,12,0:0:0:0:
242,232,36544,1,0,0:0:0:0:
239,252,36630,1,0,0:0:0:0:
267,323,36804,6,0,B|227:338|183:321|161:284|163:246,1,140,8|4,0:0|0:0,0:0:0:0:
115,199,37324,1,0,0:0:0:0:
95,202,37410,1,0,0:0:0:0:
75,205,37497,1,2,1:0:0:0:
26,144,37671,1,0,1:0:0:0:
51,71,37844,1,8,0:0:0:0:
101,129,38018,6,0,B|131:139|162:131|183:111,1,70,6|0,0:1|0:0,0:0:0:0:
204,53,38365,1,2,1:0:0:0:
280,53,38538,1,0,0:0:0:0:
245,121,38711,1,0,1:0:0:0:
253,140,38798,1,0,1:0:0:0:
261,159,38885,1,0,1:0:0:0:
305,221,39058,1,8,0:0:0:0:
228,230,39232,1,12,0:0:0:0:
273,291,39405,1,0,0:0:0:0:
262,309,39492,1,0,0:0:0:0:
250,326,39578,6,0,B|198:340|146:333|102:312,1,140,8|4,0:0|0:0,0:0:0:0:
58,260,40099,1,0,0:0:0:0:
93,192,40272,1,2,1:0:0:0:
85,172,40359,1,0,1:0:0:0:
79,151,40445,1,0,1:0:0:0:
29,91,40619,1,8,0:0:0:0:
87,41,40792,1,6,0:1:0:0:
154,78,40966,5,0,0:0:0:0:
206,21,41139,2,0,B|241:12|275:15|306:26,1,70,2|0,1:0|0:0,0:0:0:0:
304,89,41486,1,0,1:0:0:0:
298,110,41572,1,0,1:0:0:0:
290,130,41659,1,0,1:0:0:0:
295,207,41833,1,0,1:0:0:0:
362,243,42006,1,2,1:0:0:0:
429,206,42180,1,0,0:0:0:0:
435,227,42266,1,0,0:0:0:0:
443,247,42353,5,2,0:1:0:0:
256,187,43740,6,0,L|200:153,12,35,4|0|4|0|4|0|4|0|4|0|4|0|4,0:0|0:0|0:0|0:0|0:0|0:0|0:0|0:0|0:0|0:0|0:0|0:0|0:1,0:0:0:0:
121,262,45128,6,0,B|100:238|93:207|99:179,1,70,8|0,0:0|0:0,0:0:0:0:
199,85,45474,1,4,0:0:0:0:
154,147,45648,1,0,0:0:0:0:
81,47,45821,1,0,0:0:0:0:
81,124,45995,1,8,0:0:0:0:
154,23,46168,1,4,0:0:0:0:
154,147,46341,1,0,0:0:0:0:
226,250,46515,6,0,B|255:254|283:246|305:230,1,70,8|8,0:0|0:0,0:0:0:0:
326,257,46775,1,0,0:0:0:0:
326,257,46862,2,0,B|355:253|383:261|405:277,1,70,4|0,0:0|0:0,0:0:0:0:
429,283,47122,1,0,0:0:0:0:
429,283,47208,2,0,B|449:260|455:229|448:202,1,70,8|8,0:0|0:0,0:0:0:0:
432,183,47469,1,0,0:0:0:0:
432,183,47555,2,0,B|412:160|406:129|413:102,1,70,4|0,0:0|0:0,0:0:0:0:
466,64,47902,6,0,B|432:30|378:30|341:64|333:105,1,140,8|4,0:0|0:0,0:0:0:0:
339,154,48422,1,0,0:0:0:0:
319,161,48509,1,0,0:0:0:0:
299,168,48596,2,0,B|254:146|234:97|245:52,1,140,0|4,0:0|0:0,0:0:0:0:
91,46,49289,5,8,0:0:0:0:
52,113,49463,2,0,B|50:149|61:182|81:207,1,70,2|2,0:0|0:0,0:0:0:0:
174,289,49983,2,0,B|193:250|191:206|172:170,2,105,2|2|2,0:0|0:0|0:0,0:0:0:0:
118,342,50677,5,0,0:0:0:0:
192,361,50850,2,0,L|268:355,1,70,0|0,0:0|0:0,0:0:0:0:
397,281,51370,2,0,B|435:275|472:288|497:313,2,105,8|8|8,0:0|0:0|0:0,0:0:0:0:
333,325,52064,5,0,0:0:0:0:
329,248,52237,2,0,L|325:160,1,70,0|4,0:0|0:0,0:0:0:0:
393,39,52758,2,0,B|435:45|472:62|501:88,2,105,0|8|8,0:0|0:0|0:0,0:0:0:0:
342,97,53451,6,0,B|291:119|236:113|193:86,1,140,8|4,0:0|0:0,0:0:0:0:
146,45,53971,1,0,0:0:0:0:
146,45,54145,2,0,B|95:23|40:29|-3:56,1,140,0|4,0:0|0:0,0:0:0:0:
47,198,54839,6,0,L|-4:205,2,35,0|0|2,0:0|0:0|0:0,0:0:0:0:
118,227,55185,2,0,L|168:219,2,35,0|2|0,0:0|0:0|0:0,0:0:0:0:
90,299,55532,2,0,L|55:298,2,35,0|0|10,0:0|0:0|0:0,0:0:0:0:
155,340,55879,2,0,L|144:378,2,35,4|0|2,0:0|0:0|0:0,0:0:0:0:
215,291,56226,6,0,L|224:257,2,35,8|0|0,0:0|0:0|0:0,0:0:0:0:
368,283,56746,2,0,L|403:283,2,35,0|0|8,3:0|0:0|0:0,0:0:0:0:
266,169,57266,2,0,L|274:134,2,35,4|0|0,0:0|0:0|0:0,0:0:0:0:
188,171,57613,6,0,L|153:171,2,35,8|0|8,3:0|0:0|0:0,0:0:0:0:
335,214,58133,2,0,L|326:248,2,35,0|0|8,3:0|0:0|3:0,0:0:0:0:
294,64,58654,2,0,L|329:64,2,35,4|0|0,0:0|0:0|0:0,0:0:0:0:
226,100,59000,5,8,0:0:0:0:
205,94,59087,1,0,0:0:0:0:
184,88,59174,1,0,2:0:0:0:
66,188,59521,1,8,0:0:0:0:
82,172,59608,1,0,0:0:0:0:
97,158,59695,1,0,0:0:0:0:
69,6,60041,1,4,0:0:0:0:
74,27,60128,1,0,0:0:0:0:
79,47,60215,1,0,0:0:0:0:
43,115,60388,6,0,L|5:116,2,35,8|0|8,0:0|0:0|0:0,0:0:0:0:
78,183,60735,1,4,0:0:0:0:
83,204,60822,1,0,0:0:0:0:
88,224,60909,1,0,0:0:0:0:
43,285,61081,2,0,L|4:287,2,35,,,0:0:0:0:
66,359,61428,1,4,0:0:0:0:
85,351,61515,1,0,0:0:0:0:
104,343,61602,1,0,0:0:0:0:
161,291,61775,6,0,L|143:220,11,46.6666666666667,8|0|0|6|2|2|2|2|2|2|2|2,3:2|0:0|0:0|0:0|0:0|0:0|0:0|0:0|0:0|0:0|0:0|0:0,0:0:0:0:
167,197,63162,6,0,L|178:151,11,46.6666666666667,10|2|10|2|2|2|10|2|10|2|2|2,3:0|0:0|3:0|0:0|0:0|0:0|3:0|0:0|3:0|0:0|0:0|0:0,0:0:0:0:
172,100,64550,5,0,3:0:0:0:
224,44,64723,2,0,B|278:37|330:51,4,105,2|2|2|2|8,0:0|0:0|0:0|0:0|0:0,0:0:0:0:
148,26,65937,6,0,B|94:33|42:19,2,105,2|2|10,0:0|0:0|0:0,0:0:0:0:
172,100,66630,2,0,B|156:139|156:179|168:216,2,105,2|2|8,0:0|0:0|0:0,0:0:0:0:
247,117,67324,5,8,0:0:0:0:
324,121,67498,1,0,0:0:0:0:
399,108,67671,1,4,0:0:0:0:
484,236,68018,2,0,B|487:283|474:328|451:364,2,105,0|0|0,0:0|0:0|0:0,0:0:0:0:
447,168,68711,5,8,0:0:0:0:
383,211,68885,2,0,B|349:225|313:222|283:206,1,70,0|4,0:0|0:0,0:0:0:0:
297,182,69145,2,0,B|263:168|227:171|197:187,1,70,0|0,0:0|0:0,0:0:0:0:
197,199,69405,2,0,B|194:246|207:291|230:327,2,105,0|0|0,0:0|0:0|0:0,0:0:0:0:
125,169,70099,5,8,0:0:0:0:
53,196,70272,1,0,0:0:0:0:
23,267,70445,1,4,0:0:0:0:
61,117,70792,2,0,B|59:58|37:4,2,105,0|0|0,0:0|0:0|0:0,0:0:0:0:
53,196,71486,5,8,0:0:0:0:
93,261,71659,2,0,B|116:282|147:289|175:283,1,70,0|4,0:0|0:0,0:0:0:0:
188,262,71919,2,0,B|211:241|242:234|270:240,1,70,0|0,0:0|0:0,0:0:0:0:
285,258,72180,2,0,B|344:277|405:272,2,105,0|0|0,0:0|0:0|0:0,0:0:0:0:
258,185,72873,5,8,0:0:0:0:
269,108,73047,1,0,0:0:0:0:
331,63,73220,1,4,0:0:0:0:
196,137,73567,2,0,B|137:136|83:116,2,105,0|0|0,0:0|0:0|0:0,0:0:0:0:
269,108,74261,5,8,0:0:0:0:
332,64,74434,2,0,B|360:45|392:38|422:43,1,70,0|4,0:0|0:0,0:0:0:0:
433,55,74694,2,0,B|444:83|446:112|442:139,1,70,0|0,0:0|0:0,0:0:0:0:
433,160,74954,2,0,B|424:229|445:294,2,105,0|0|0,0:0|0:0|0:0,0:0:0:0:
359,139,75648,5,8,0:0:0:0:
288,169,75821,1,0,0:0:0:0:
255,239,75995,1,4,0:0:0:0:
346,362,76341,2,0,B|393:366|437:354|474:331,2,105,0|0|0,0:0|0:0|0:0,0:0:0:0:
282,318,77035,5,8,0:0:0:0:
208,297,77208,2,0,B|168:293|130:308,1,70,0|4,0:0|0:0,0:0:0:0:
115,335,77469,2,0,B|75:339|37:324,1,70,0|0,0:0|0:0,0:0:0:0:
24,294,77729,2,0,B|29:249|45:209|70:175,2,105,0|0|8,0:0|0:0|0:0,0:0:0:0:
20,370,78422,5,12,0:0:0:0:
175,115,86746,6,0,L|103:132,11,46.6666666666667,0|2|2|0|2|2|0|2|2|0|2|2,0:0|0:0|0:0|0:0|0:0|0:0|0:0|0:0|0:0|0:0|0:0|0:0,0:0:0:0:
256,192,88133,12,4,89174,0:0:0:0:
388,64,89521,6,0,B|347:35|295:38|257:63,1,140,8|4,0:0|0:0,0:0:0:0:
233,138,90042,1,0,0:0:0:0:
161,112,90215,1,2,1:0:0:0:
141,108,90302,1,0,1:0:0:0:
121,103,90388,1,0,1:0:0:0:
77,166,90562,1,8,0:0:0:0:
140,211,90735,1,6,1:0:0:0:
146,232,90822,1,0,0:0:0:0:
151,253,90909,6,0,B|155:282|145:308|126:327,1,70,0|0,0:0|0:0,0:0:0:0:
189,372,91255,1,0,0:0:0:0:
259,338,91429,1,0,1:0:0:0:
253,318,91516,1,0,1:0:0:0:
247,299,91602,1,0,1:0:0:0:
298,241,91776,1,8,0:0:0:0:
267,172,91949,1,2,1:0:0:0:
270,152,92036,1,0,0:0:0:0:
273,132,92122,1,0,0:0:0:0:
245,61,92296,6,0,B|285:46|329:63|351:100|349:138,1,140,8|12,0:0|0:0,0:0:0:0:
397,185,92816,1,0,0:0:0:0:
417,182,92902,1,0,0:0:0:0:
437,179,92989,1,2,1:0:0:0:
486,240,93163,1,0,1:0:0:0:
461,313,93336,1,8,0:0:0:0:
411,255,93510,6,0,B|381:245|350:253|329:273,1,70,6|0,1:0|0:0,0:0:0:0:
308,331,93857,1,2,1:0:0:0:
232,331,94030,1,0,0:0:0:0:
267,263,94203,1,0,1:0:0:0:
259,244,94290,1,0,1:0:0:0:
251,225,94377,1,0,1:0:0:0:
207,163,94550,1,8,0:0:0:0:
284,154,94724,1,2,1:0:0:0:
239,93,94897,1,0,0:0:0:0:
250,75,94984,1,0,0:0:0:0:
262,58,95070,6,0,B|314:44|366:51|410:72,1,140,8|12,0:0|0:0,0:0:0:0:
454,124,95591,1,0,0:0:0:0:
419,192,95764,1,2,1:0:0:0:
427,212,95851,1,0,1:0:0:0:
435,230,95937,1,0,1:0:0:0:
489,284,96111,1,8,0:0:0:0:
427,330,96284,1,6,1:0:0:0:
352,310,96458,5,0,0:0:0:0:
298,364,96631,2,0,B|263:373|229:370|198:359,1,70,2|0,1:0|0:0,0:0:0:0:
210,291,96978,1,0,1:0:0:0:
216,270,97064,1,0,1:0:0:0:
224,250,97151,1,0,1:0:0:0:
224,172,97325,1,8,0:0:0:0:
154,139,97498,1,2,1:0:0:0:
84,171,97672,1,0,0:0:0:0:
78,150,97758,1,0,0:0:0:0:
73,129,97844,6,0,L|69:89,8,35,2|0|0|0|2|0|0|0|8,1:0|0:0|0:0|0:0|1:0|0:0|0:0|0:0|0:0,0:0:0:0:
150,123,98711,1,8,0:0:0:0:
225,139,98885,2,0,L|230:188,2,35,8|0|8,0:0|0:0|0:0,0:0:0:0:
297,111,99232,6,0,L|293:76,2,35,2|0|0,1:0|0:0|0:0,0:0:0:0:
371,94,99578,1,2,1:0:0:0:
445,72,99752,2,0,L|441:37,2,35,0|0|8,0:0|0:0|0:0,0:0:0:0:
452,148,100099,1,8,0:0:0:0:
459,224,100272,2,0,L|462:277,3,35,8|0|8|0,0:0|0:0|0:0|0:0,0:0:0:0:
444,294,100619,6,0,B|403:323|351:320|313:295,1,140,12|4,0:0|0:0,0:0:0:0:
249,248,101140,1,0,0:0:0:0:
177,274,101313,1,2,1:0:0:0:
156,279,101400,1,0,1:0:0:0:
137,284,101486,1,0,1:0:0:0:
83,227,101660,1,8,0:0:0:0:
140,173,101833,1,6,1:0:0:0:
146,152,101920,1,0,0:0:0:0:
151,131,102007,6,0,B|155:102|145:76|126:57,1,70,0|2,0:0|1:0,0:0:0:0:
189,12,102353,1,0,0:0:0:0:
259,46,102527,1,0,1:0:0:0:
253,66,102614,1,0,1:0:0:0:
247,85,102700,1,0,1:0:0:0:
298,143,102874,1,8,0:0:0:0:
267,212,103047,1,2,1:0:0:0:
270,232,103134,1,0,0:0:0:0:
273,252,103220,1,0,0:0:0:0:
245,323,103393,6,0,B|285:338|329:321|351:284|349:246,1,140,8|4,0:0|0:0,0:0:0:0:
397,199,103913,1,0,0:0:0:0:
417,202,103999,1,0,0:0:0:0:
437,205,104086,1,2,1:0:0:0:
486,144,104260,1,0,1:0:0:0:
461,71,104433,1,8,0:0:0:0:
411,129,104607,6,0,B|381:139|350:131|329:111,1,70,6|0,1:0|0:0,0:0:0:0:
308,53,104954,1,2,1:0:0:0:
232,53,105127,1,0,0:0:0:0:
267,121,105300,1,0,1:0:0:0:
259,140,105387,1,0,1:0:0:0:
251,159,105474,1,0,1:0:0:0:
207,221,105647,1,8,0:0:0:0:
284,230,105821,1,2,1:0:0:0:
239,291,105994,1,0,0:0:0:0:
250,308,106081,1,0,0:0:0:0:
262,326,106168,6,0,B|314:340|366:333|410:312,1,140,8|4,0:0|0:0,0:0:0:0:
454,260,106688,1,0,0:0:0:0:
419,192,106861,1,2,1:0:0:0:
427,172,106948,1,0,1:0:0:0:
434,152,107034,1,0,1:1:0:0:
484,93,107208,1,8,0:0:0:0:
421,48,107381,1,6,1:0:0:0:
349,78,107555,5,0,0:0:0:0:
299,19,107728,2,0,B|264:10|230:13|199:24,1,70,2|0,1:0|0:0,0:0:0:0:
210,91,108075,1,0,1:0:0:0:
216,112,108161,1,0,1:0:0:0:
224,132,108248,1,0,1:0:0:0:
217,209,108422,1,8,0:0:0:0:
144,233,108595,1,2,1:0:0:0:
78,191,108769,1,0,0:0:0:0:
72,212,108855,1,0,0:0:0:0:
65,233,108943,6,0,B|56:262|64:291|83:312,1,70,8|0,0:0|0:0,0:0:0:0:
144,331,109289,1,4,0:0:0:0:
219,313,109463,1,0,0:0:0:0:
292,335,109636,2,0,L|369:336,1,70,8|0,0:0|0:0,0:0:0:0:
400,332,109896,2,0,B|426:305|429:265|413:235,1,105,8|8,0:0|0:0,0:0:0:0:
345,197,110330,5,0,0:0:0:0:
271,173,110503,2,0,B|265:135|273:98,1,70,8|0,0:0|0:0,0:0:0:0:
298,74,110763,2,0,B|278:45|245:31|212:33,1,70,8|0,0:0|0:0,0:0:0:0:
205,50,111024,2,0,B|170:68|131:71|96:62,2,105,8|8|8,0:0|0:0|0:0,0:0:0:0:
256,192,111717,12,0,113971,0:0:0:0:
